img image001 image001 image001 image001 image001 image001 image001 image001 image001 image001 image001 image001 image001 image001 image001

Planets Sun Sun Sun
Статистика раздачи
Автор: Nickolas3434 | Размер: 7.83 ГБ | Добавлен: 08 янв 2018, 05:18
Раздают: 11    Качают: 4
Скачать торрент
Скачать торрент
Описание торрента

СообщениеДобавлено: 08 янв 2018, 05:18 

Вопросы и ответы / Q & A

Страна: США, Odyssey Distributors, Regency International Pictures
Жанр: Триллер, драма, криминал
Год выпуска: 1990
Продолжительность: 02:12:26
Перевод: Профессиональный многоголосый, профессиональный двухголосый, авторский
Режиссер: Сидни Люмет
В ролях: Ник Нолти, Тимоти Хаттон, Арманд Ассанте, Патрик О`Нил, Ли Ричардсон, Луис Гусман, Чарльз С. Даттон, Дженни Люмет, Пол Кальдерон, Интернэшнл Кризис
Описание: Когда Майк Брэннан, бывалый нью-йоркский полицейский с крутым нравом, безжалостно расправляется с мелким гангстером, прокурор поручает молодому юристу Элу Фрэнсису провести формальное дознание, чтобы отчитаться перед законом и списать дело в архив.Никто не сомневается, что Майк, для которого ненависть к ворам и убийцам стала наваждением, поступил правильно, но показания наркодилера Декса говорят об обратном. Оказавшись перед нелегким выбором, Эл решает провести справедливое расследование.Он знает, что рискует не только честью, но и жизнью, ведь в суровом мире крутых копов и безжалостных бандитов предательство не прощается...

Кодек: х264
Качество: BDRip 720p
Видео: MPEG-4 AVC, 1280х720, 25 fps, 7500 Кбит/с
Аудио 1: Русский, AC3, 48000 Hz, 2 ch, 192 Кбит/с, Профессиональный (многоголосый закадровый)
Аудио 2: Русский, AC3, 48000 Hz, 2 ch, 384 Кбит/с, Двухголосый закадровый (НТВ+)
Аудио 3: Русский, AC3, 48000 Hz, 2 ch, 192 Кбит/с, Одноголосый закадровый (М.Иванов)
Аудио 4: Английский, AC3, 48000 Hz, 2 ch, 192 Кбит/с
Субтитры: Английские
Главы: Есть

x264 [info]: frame I:1139 Avg QP:14.54 size:203195
x264 [info]: frame P:31594 Avg QP:18.11 size: 79162
x264 [info]: frame B:157803 Avg QP:19.85 size: 29888
Общее
Уникальный идентификатор : 227554852570753910320591479868320379545 (0xAB31786FC84A1FB5812C9EC12DC7F299)
Полное имя : E:Мои рипыВопросы и ответы 1990_BDRip 720_KORSAR.mkv
Формат : Matroska
Версия формата : Version 2
Размер файла : 7,83 Гбайт
Продолжительность : 2 ч. 12 м.
Общий поток : 8461 Кбит/сек
Название фильма : Q & A
Режиссёр : Sidney Lumet
Дата кодирования : UTC 2018-01-06 08:26:15
Программа кодирования : mkvmerge v5.8.0 ('No Sleep / Pillow') built on Sep 2 2012 15:37:04
Библиотека кодирования : libebml v1.2.3 + libmatroska v1.3.0
Видео
Идентификатор : 1
Формат : AVC
Формат/Информация : Advanced Video Codec
Профиль формата : [email protected]
Настройки формата : CABAC / 9 Ref Frames
Параметр CABAC формата : Да
Параметр RefFrames формата : 9 кадров
Идентификатор кодека : V_MPEG4/ISO/AVC
Продолжительность : 2 ч. 12 м.
Битрейт : 7500 Кбит/сек
Ширина : 1280 пикселей
Высота : 720 пикселей
Соотношение сторон : 16:9
Режим частоты кадров : Постоянный
Частота кадров : 23,976 (24000/1001) кадра/сек
Цветовое пространство : YUV
Субдискретизация насыщенности : 4:2:0
Битовая глубина : 8 бит
Тип развёртки : Прогрессивная
Бит/(Пиксели*Кадры) : 0.339
Размер потока : 6,78 Гбайт (87%)
Библиотека кодирования : x264 core 152 r2851kMod ba24899
Настройки программы : cabac=1 / ref=9 / deblock=1:-2:-2 / analyse=0x3:0x113 / me=umh / subme=11 / psy=1 / fade_compensate=0.00 / psy_rd=1.05:0.10 / mixed_ref=1 / me_range=48 / chroma_me=1 / trellis=2 / 8x8dct=1 / cqm=0 / deadzone=21,11 / fast_pskip=0 / chroma_qp_offset=-3 / threads=12 / lookahead_threads=3 / sliced_threads=0 / nr=0 / decimate=0 / interlaced=0 / bluray_compat=0 / constrained_intra=0 / bframes=16 / b_pyramid=2 / b_adapt=2 / b_bias=0 / direct=3 / weightb=1 / open_gop=0 / weightp=2 / keyint=240 / keyint_min=23 / scenecut=40 / intra_refresh=0 / rc_lookahead=40 / rc=2pass / mbtree=0 / bitrate=7500 / ratetol=1.0 / qcomp=0.60 / qpmin=0 / qpmax=39 / qpstep=4 / cplxblur=20.0 / qblur=0.5 / vbv_maxrate=50000 / vbv_bufsize=62500 / nal_hrd=none / filler=0 / ip_ratio=1.40 / pb_ratio=1.30 / aq=1:0.90
Язык : English
Default : Да
Forced : Нет
Цветовой диапазон : Limited
Основные цвета : BT.709
Характеристики трансфера : BT.709
Коэффициенты матрицы : BT.709
Аудио #1
Идентификатор : 2
Формат : AC-3
Формат/Информация : Audio Coding 3
Параметр Endianness формата : Big
Идентификатор кодека : A_AC3
Продолжительность : 2 ч. 12 м.
Вид битрейта : Постоянный
Битрейт : 192 Кбит/сек
Каналы : 2 канала
Расположение каналов : Front: L R
Частота : 48,0 КГц
Частота кадров : 31,250 кадров/сек (1536 SPF)
Битовая глубина : 16 бит
Метод сжатия : С потерями
Размер потока : 182 Мбайт (2%)
Заголовок : |Многоголосый закадровый, РТР|
Язык : Russian
Default : Да
Forced : Нет
Аудио #2
Идентификатор : 3
Формат : AC-3
Формат/Информация : Audio Coding 3
Параметр Endianness формата : Big
Идентификатор кодека : A_AC3
Продолжительность : 2 ч. 12 м.
Вид битрейта : Постоянный
Битрейт : 384 Кбит/сек
Каналы : 2 канала
Расположение каналов : Front: L R
Частота : 48,0 КГц
Частота кадров : 31,250 кадров/сек (1536 SPF)
Битовая глубина : 16 бит
Метод сжатия : С потерями
Размер потока : 364 Мбайт (5%)
Заголовок : |Двухголосый закадровый, НТВ+|
Язык : Russian
Default : Нет
Forced : Нет
Аудио #3
Идентификатор : 4
Формат : AC-3
Формат/Информация : Audio Coding 3
Параметр Endianness формата : Big
Идентификатор кодека : A_AC3
Продолжительность : 2 ч. 12 м.
Вид битрейта : Постоянный
Битрейт : 192 Кбит/сек
Каналы : 2 канала
Расположение каналов : Front: L R
Частота : 48,0 КГц
Частота кадров : 31,250 кадров/сек (1536 SPF)
Битовая глубина : 16 бит
Метод сжатия : С потерями
Размер потока : 182 Мбайт (2%)
Заголовок : |Одноголосый закадровый, М.Иванов|
Язык : Russian
Default : Нет
Forced : Нет
Аудио #4
Идентификатор : 5
Формат : AC-3
Формат/Информация : Audio Coding 3
Параметр Endianness формата : Big
Идентификатор кодека : A_AC3
Продолжительность : 2 ч. 12 м.
Вид битрейта : Постоянный
Битрейт : 192 Кбит/сек
Каналы : 2 канала
Расположение каналов : Front: L R
Частота : 48,0 КГц
Частота кадров : 31,250 кадров/сек (1536 SPF)
Битовая глубина : 16 бит
Метод сжатия : С потерями
Задержка видео : 800 мс.
Размер потока : 182 Мбайт (2%)
Язык : English
Default : Нет
Forced : Нет
Statistics Tags Issue : mkvmerge v7.7.0 ('Six Voices') 32bit built on Feb 28 2015 23:23:00 2016-05-19 16:46:35 / mkvmerge v5.8.0 ('No Sleep / Pillow') built on Sep 2 2012 15:37:04 2018-01-06 08:26:15
FromStats_BitRate : 192000
FromStats_Duration : 02:12:24.864000000
FromStats_FrameCount : 248277
FromStats_StreamSize : 190676736
Текст
Идентификатор : 6
Формат : UTF-8
Идентификатор кодека : S_TEXT/UTF8
Идентификатор кодека/Информация : UTF-8 Plain Text
Default : Да
Forced : Нет
Меню
00:00:00.000 : en:
00:05:17.232 : en:
00:11:56.048 : en:
00:15:56.163 : en:
00:18:48.166 : en:
00:23:33.327 : en:
00:36:35.818 : en:
00:39:24.777 : en:
00:45:29.934 : en:
00:47:23.882 : en:
00:51:41.556 : en:
00:58:26.126 : en:
01:03:12.704 : en:
01:11:51.015 : en:
01:14:30.881 : en:
01:18:37.753 : en:
01:21:58.329 : en:
01:31:21.309 : en:
01:34:01.385 : en:
01:42:17.046 : en:
01:51:03.280 : en:
01:55:34.301 : en:
01:59:56.229 : en:
02:10:12.930 : en:




   Похожие торренты   Торрент   Размер 
В этой теме нет новых непрочитанных сообщений. Вопросы и ответы / Q & A (1990) BDRip от Koenig

6 | 0

2.18 ГБ

В этой теме нет новых непрочитанных сообщений. Вопросы и ответы / Q & A (1990) BDRip-AVC от Koenig | P

12 | 0

2.74 ГБ

В этой теме нет новых непрочитанных сообщений. Трехлебов А.В. Ответы на вопросы (2010) CAMRip

0 | 3

398.12 МБ

В этой теме нет новых непрочитанных сообщений. Трехлебов А.В. - Ответы на вопросы [19.12] (2012) CAMRip

0 | 3

2 ГБ

В этой теме нет новых непрочитанных сообщений. Трехлебов А.В. - Ответы на вопросы [февраль] (2012) CAMRip

0 | 2

557.68 МБ

В этой теме нет новых непрочитанных сообщений. Трехлебов А.В. - Ответы на вопросы в Анапе (2004) CAMRip

1 | 8

588.6 МБ

В этой теме нет новых непрочитанных сообщений. А.И. Осипов - Ответы на вопросы о Православии (1998-2010) MP3

206 | 9

217.56 МБ




Вы не можете начинать темы
Вы не можете отвечать на сообщения
Вы не можете редактировать свои сообщения
Вы не можете удалять свои сообщения
Вы не можете добавлять вложения

Перейти:  
Для Мосгорсуда, Роскомнадзора и рекламодателей: mosgorsud-torrent[собачка]yandex.ru
Настройки
ppkBB3cker v.2 © 2008-2014 @ PPK
[ Time : 0.034s | 17 Queries | GZIP : Off ]

cron